(navigation image)
Home Audio Books & Poetry | Community Audio | Computers & Technology | Grateful Dead | Live Music Archive | Music, Arts & Culture | Netlabels | News & Public Affairs | Non-English Audio | Podcasts | Radio Programs | Spirituality & Religion
Search: Advanced Search
Anonymous User (login or join us)
Upload

Listen to audio

item image

Stream (help[help])

VBR M3U
MP3 via M3U

Play / Download (help[help])

VBR ZIP

Ogg Vorbis

Lossless zip


All Files: HTTPS Torrent (2/0)

Resources

Bookmark

SeedSeed Live at Tyrone Farm (Barn) on 2012-04-22 (April 22, 2012)

something has gone horribly wrong 8-p
Prefer flash? · Embed · Questions/Feedback?


Collection: SeedMusic
Band/Artist: Seed
Date: April 22, 2012 (check for other copies)
Venue: Tyrone Farm (Barn)
Location: Pomfret, CT

Source: Schoeps M22>KC5>CMC6>Sonosax SXR4(24bit/96khz) & Soundboard
Lineage: WAV>USB>Macbook Pro>Audacity(mixing)>Wave Editor(tracking,fades,resample(izotope)/dither(mbit+)to 16 bit/44.1k)>XAct(FLAC 8,ffp,fix sbe)
Taped by: Andy Murray
Transferred by: Andy Murray


Description

01 The Dump
02 Pipes
03 New Soil
04 The Tip
05 Ya Thang
06 Steve Jobs
07 Sonny D
08 New Song
09 Dr. Pain

Notes

Seed
2012-04-22
Tyrone Farm(Barn)
Pomfret, CT

Recorded and transferred by Andy Murray

Mics were on stage DFC ORTF

Schoeps MK22>KC5>CMC6>Sonosax SX-R4(24bit/96khz) & Soundboard>Sonosax SX-R4

WAV>Macbook Pro>Audacity(mixing)>Wave Editor(tracking,fades,resample(izotope)/dither(mbit+) to 16 bit/44.1 khz)>XACT(FLAC 8,ffp,fix sbe)

Van Gordon Martin Band was also on the bill.

Brain Sayers - Drums
Wes Santo - Bass
Sam Gilman - Organ/Keys
Derrick Ramos - Alto Saxophone
Gershon Rosen - Trumpet
Van Gordon Martin - Guitar and Vox

DJ Mister Rourke sat in on turntables at points during the set as well as playing the setbreaks.

1 Set

length expanded size cdr WAVE problems fmt ratio filename
7:08.68 75659180 B --- -- ----- wav 1.0000 seed2012-04-22_mk22sbmix_1644_d1t01.wav
7:55.21 83839436 B --- -- ----- wav 1.0000 seed2012-04-22_mk22sbmix_1644_d1t02.wav
5:56.63 62946620 B --- -- ----- wav 1.0000 seed2012-04-22_mk22sbmix_1644_d1t03.wav
8:49.37 93402668 B --- -- ----- wav 1.0000 seed2012-04-22_mk22sbmix_1644_d1t04.wav
6:51.51 72620396 B --- -- ----- wav 1.0000 seed2012-04-22_mk22sbmix_1644_d1t05.wav
6:38.74 70381292 B --- -- ----- wav 1.0000 seed2012-04-22_mk22sbmix_1644_d1t06.wav
7:28.59 79166012 B --- -- ----- wav 1.0000 seed2012-04-22_mk22sbmix_1644_d1t07.wav
9:32.52 101023148 B --- -- ----- wav 1.0000 seed2012-04-22_mk22sbmix_1644_d1t08.wav
7:50.39 82999772 B --- -- ----- wav 1.0000 seed2012-04-22_mk22sbmix_1644_d1t09.wav
68:13.14 722038524 B 1.0000 (9 files)

Individual Files

Audio Files Flac VBR MP3 Ogg Vorbis
The Dump 41.1 MB
10.0 MB
4.6 MB
Pipes 43.8 MB
11.1 MB
5.1 MB
New Soil 35.6 MB
8.6 MB
3.9 MB
The Tip 50.6 MB
12.5 MB
5.8 MB
Ya Thang 41.4 MB
9.9 MB
4.5 MB
Steve Jobs 39.1 MB
9.5 MB
4.4 MB
Sonny D 45.8 MB
10.9 MB
4.9 MB
New Song 57.0 MB
13.9 MB
6.3 MB
Dr. Pain 47.0 MB
11.2 MB
5.1 MB
Information FormatSize
seed2012-04-22.Schoeps_mk22sbmix_16bit.ffp Flac FingerPrint 666.0 B
seed2012-04-22.Schoeps_mk22sbmix_16bit.md5 Checksums 675.0 B
seed2012-04-22.Schoeps_mk22sbmix_16bit_files.xml Metadata [file]
seed2012-04-22.Schoeps_mk22sbmix_16bit_meta.xml Metadata 3.5 KB
Other Files Archive BitTorrent Text
seed2012-04-22.Schoeps_mk22sbmix_16bit_archive.torrent 28.5 KB
ffp 738.0 B
info 2.5 KB

Be the first to write a review
Downloaded 71 times
Reviews